Good Will Hunting – Can Dostum

0
184

Will Hunting (Matt Damon), son derece zeki fakat eziyet çekmiş genç bir adamdır. Bir matekatik dehasıdır. Yine başını derde sokan kahramanımızı, onun dehasını keşfeden Matematik Profesörü Lambeau (Stellan Skarsgaard) kurtarır ama iki şartı vardır: Will, Lambeau ile matematik derslerine katılmalı ve terapiye başlamalıdır. Bütün olup bitenler sırasında çekici ve yakışıklı Bay Hunting, başarılı ve güzel bir kızın ilgisini çekmeyi başarır. Katı ve talepkar profesör bu her an dönüşmeye hazır gençte bir kıvılcım ateşle güzel kız ise ona sevmeyi ve sevilmeyi öğretirken terapisti tüm ruhsal problemlerini bir bir çözmesine yardım eder.

Fragman IMDb 8.3

Good Will Hunting – Can Dostum (1997) [BRRip] [1080p] 1 yıl önce 2.41 GB


34
1

Good Will Hunting – Can Dostum (1997) [BRRip] [720p] 1 yıl önce 851 MB


10
1

Good Will Hunting – Can Dostum (1997) [BRRip] [1080p] 1 yıl önce 1.7 GB


17
14

Good Will Hunting – Can Dostum (1997) [Bluray] [1080p] 1 yıl önce 8.75 GB

Video
ID : 1
Format : AVC
Format/Info : Advanced Video Codec
Format profile : [email protected]
Format settings, CABAC : Yes
Format settings, ReFrames : 4 frames
Codec ID : V_MPEG4/ISO/AVC
Duration : 2h 6mn
Bit rate : 8 386 Kbps
Width : 1 920 pixels
Height : 1 040 pixels
Display aspect ratio : 1.85:1
Frame rate mode : Constant
Frame rate : 23.976 fps
Color space : YUV
Chroma subsampling : 4:2:0
Bit depth : 8 bits
Scan type : Progressive
Bits/(Pixel*Frame) : 0.175
Stream size : 7.24 GiB (83%)
Writing library : x264 core 66 r1100 122a54a
Encoding settings : cabac=1 / ref=4 / deblock=1:0:0 / analyse=0x3:0x113 / me=umh / subme=7 / psy_rd=1.0:0.0 / mixed_ref=1 / me_range=16 / chroma_me=1 / trellis=1 / 8x8dct=1 / cqm=0 / deadzone=21,11 / chroma_qp_offset=-2 / threads=6 / nr=0 / decimate=1 / mbaff=0 / bframes=3 / b_pyramid=1 / b_adapt=1 / b_bias=0 / direct=1 / wpredb=1 / keyint=250 / keyint_min=25 / scenecut=40(pre) / rc=2pass / bitrate=8386 / ratetol=1.0 / qcomp=0.60 / qpmin=10 / qpmax=51 / qpstep=4 / cplxblur=20.0 / qblur=0.5 / ip_ratio=1.40 / pb_ratio=1.30 / aq=1:1.00
Language : English
Default : Yes
Forced : No

Audio
ID : 2
Format : DTS
Format/Info : Digital Theater Systems
Mode : 16
Format settings, Endianness : Big
Codec ID : A_DTS
Duration : 2h 6mn
Bit rate mode : Constant
Bit rate : 1 509 Kbps
Channel(s) : 6 channels
Channel positions : Front: L C R, Side: L R, LFE
Sampling rate : 48.0 KHz
Frame rate : 93.750 fps (512 spf)
Bit depth : 24 bits
Compression mode : Lossy
Stream size : 1.33 GiB (15%)
Language : English
Default : Yes
Forced : No

10
4

Türkçe Altyazı  – Türkçe Dublaj

Altyazı nasıl eklenir?  – Dublaj nasıl eklenir?

Torrent nasıl indirilir?