Ant-Man and the Wasp – Karınca Adam ve Eşek Arısı

0
178

Kaptan Amerika: Kahramanların Savaşı filminin ardından Scott Lang, hem baba hem süper kahraman olarak seçimlerinin sonucuyla uğraşmaktadır. Bir yandan ev yaşamıyla Ant-Man olarak sorumluluklarını dengede tutmaya çalışırken, acil bir görevle birlikte Hope Van Dyk ve Dr. Hank Pym ile karşı karşıya kalır. Scott bir kez daha kostümünü giymek ve geçmişin sırlarını ortaya çıkarmak için Wasp ile omuz omuz savaşmayı öğrenmek zorundadır.

Fragman IMDb 7.4

Ant-Man and The Wasp (2018) [x265] [Bluray] [4K] 1 yıl önce 19.04 GB


58
22

Ant-Man and The Wasp (2018) [Bluray] [1080p] [3D] 1 yıl önce 19.24 GB


2
33

Ant-Man and The Wasp (2018) [BRRip] [720p] 1 yıl önce 1.44 GB


243
466

Ant-Man and The Wasp (2018) [BRRip] [1080p] 1 yıl önce 2.25 GB


1106
1826

Ant-Man and The Wasp (2018) [Bluray] [720p] 1 yıl önce 5.48 GB


291
484

Ant-Man and The Wasp (2018) [Bluray] [1080p] 1 yıl önce 8.76 GB


1893
4231

Ant-Man and The Wasp (2018) [WEB-DL] [1080p] 1 yıl önce 4.04 GB

Video
ID : 1
Format : AVC
Format/Info : Advanced Video Codec
Format profile : [email protected]
Format settings : CABAC / 5 Ref Frames
Format settings, CABAC : Yes
Format settings, ReFrames : 5 frames
Codec ID : V_MPEG4/ISO/AVC
Duration : 1 h 58 min
Bit rate : 4 507 kb/s
Width : 1 920 pixels
Height : 804 pixels
Display aspect ratio : 2.40:1
Frame rate mode : Constant
Frame rate : 23.976 (24000/1001) FPS
Color space : YUV
Chroma subsampling : 4:2:0
Bit depth : 8 bits
Scan type : Progressive
Bits/(Pixel*Frame) : 0.122
Stream size : 3.72 GiB (92%)
Title : Ant.Man.and.the.Wasp.2018.1080p.WEB-DL.DD5.1.H264-FGT
Language : English
Default : Yes
Forced : No
Color range : Limited
Color primaries : BT.709
Transfer characteristics : BT.709
Matrix coefficients : BT.709

Audio
ID : 2
Format : AC-3
Format/Info : Audio Coding 3
Codec ID : A_AC3
Duration : 1 h 58 min
Bit rate mode : Constant
Bit rate : 384 kb/s
Channel(s) : 6 channels
Channel positions : Front: L C R, Side: L R, LFE
Sampling rate : 48.0 kHz
Frame rate : 31.250 FPS (1536 SPF)
Bit depth : 16 bits
Compression mode : Lossy
Stream size : 324 MiB (8%)
Title : Ant.Man.and.the.Wasp.2018.1080p.WEB-DL.DD5.1.H264-FGT
Language : English
Service kind : Complete Main
Default : Yes
Forced : No

532
8202

Türkçe Altyazı  – Türkçe Dublaj

Altyazı nasıl eklenir?  – Dublaj nasıl eklenir?

Torrent nasıl indirilir?